1. Dismiss Notice
  2. Dismiss Notice

British Summer Time 2016 - Highlights 2 [Live in Hyde Park] BISHD 1080i HDTV DD5.1 H.264 CELOBRAZiL-HDMania

Discussion in 'Performers video' started by CELOBRAZiL, Jun 3, 2020.

Random Thread
  1. CELOBRAZiL Vip on HQCC

    • V.I.P
    Joined:
    Jul 31, 2019
    Threads:
    411
    Messages:
    607
    Likes Received:
    304
    Location:
    Brazil
    British Summer Time 2016 - Highlights 2 [Live in Hyde Park] BISHD 1080i HDTV DD5.1 H.264 CELOBRAZiL-HDMania

    [​IMG]



    Format : MPEG-TS
    File size : 3.70 GiB
    Duration : 58 min 50 s
    Overall bit rate mode : Variable
    Overall bit rate : 8 994 kb/s

    Video
    ID : 1040 (0x410)
    Menu ID : 620 (0x26C)
    Format : AVC
    Format/Info : Advanced Video Codec
    Format profile : High@L4
    Format settings : CABAC / 4 Ref Frames
    Format settings, CABAC : Yes
    Format settings, Reference frames : 4 frames
    Format settings, GOP : M=4, N=32
    Codec ID : 27
    Duration : 58 min 50 s
    Bit rate : 7 903 kb/s
    Width : 1 920 pixels
    Height : 1 080 pixels
    Display aspect ratio : 16:9
    Frame rate : 29.970 (30000/1001) FPS
    Color space : YUV
    Chroma subsampling : 4:2:0
    Bit depth : 8 bits
    Scan type : MBAFF
    Scan type, store method : Interleaved fields
    Scan order : Top Field First
    Bits/(Pixel*Frame) : 0.127
    Stream size : 3.25 GiB (88%)

    Audio #1
    ID : 1041 (0x411)
    Menu ID : 620 (0x26C)
    Format : AC-3
    Format/Info : Audio Coding 3
    Commercial name : Dolby Digital
    Codec ID : 129
    Duration : 58 min 50 s
    Bit rate mode : Constant
    Bit rate : 384 kb/s
    Channel(s) : 6 channels
    Channel layout : L R C LFE Ls Rs
    Sampling rate : 48.0 kHz
    Frame rate : 31.250 FPS (1536 SPF)
    Compression mode : Lossy
    Stream size : 162 MiB (4%)
    Language : Portuguese
    Service kind : Complete Main

    Audio #2
    ID : 1042 (0x412)
    Menu ID : 620 (0x26C)
    Format : MPEG Audio
    Format version : Version 1
    Format profile : Layer 2
    Format settings : Joint stereo / Intensity Stereo + MS Stereo
    Codec ID : 3
    Duration : 58 min 50 s
    Bit rate mode : Constant
    Bit rate : 256 kb/s
    Channel(s) : 2 channels
    Sampling rate : 48.0 kHz
    Frame rate : 41.667 FPS (1152 SPF)
    Compression mode : Lossy
    Stream size : 108 MiB (3%)
    Language : English


    Link(s):
    [​IMG]

    https://drive.google.com/file/d/1hHuXLTRoQVmMD9XHGtQ4QVPBDwc0edEy/view?usp=sharing


    Password: celobrazil
     
    • Like Like x 1
  2. kmfan Super VIP on HQCC

    • Super VIP
    Joined:
    Jul 10, 2019
    Threads:
    1,596
    Messages:
    1,953
    Likes Received:
    1,233
    Location:
    EU
    Thank you!
     
    • Like Like x 1
Loading...

Share This Page

Loading...